Codecanyon WooCommerce Free Gift v1.7 | Amonphan Gongtragan | Young Justice

Tim Timmerman Hope Of America 2017 Movie Torrent Free Download

Seeders : 746   &   Leechers : 191      14-03-2018 (3 months)
Tim Timmerman Hope Of America 2017 Movie Torrent Download
Added: ago by nehalpuja ***** in Movies   917.1 MB   Hits : 25
Info Hash: E4686637D7B3CA95101784F95E7E81B474C9472E Download
Tim Timmerman Hope Of America 2017 Movie Torrent Download

Anonymous and Direct Download movies , software , shows...

Fast Safe Anonymous
movies, software, shows...
Tim Timmerman, Hope of America
Comedy   .   94 min   5.6/10
Director : Cameron Sawyer  
Writer: Justin Copier  Cameron Sawyer  
Tags: Tim  Timmerman  Hope  Of  America  2017  

Released:
03 Mar 2017
It's 1994. Mount Vista High's student body president Tim Timmerman has aspirations of attending Yale and becoming a famous politician. Tim realizes the quickest pathway to Washington is befriending Sydney and rubbing shoulders with her father, Senator Anderson. Not.... See More hing can stop Tim from reaching the top...except himself.

Torrent Description



Tim Timmerman Hope Of America 2017 Movies 720p HDRip x264 5.1 with Sample ☻rDX☻
===============================================================================================

SCREEN SHOTS:



or

http://postimage.co.nr/2018/3/court/1.html

File size : 908 MiB
Duration : 1 h 38 min
Overall bit rate : 1 288 kb/s
Movie name : Tim Timmerman Hope Of America 2017 Movies 720p HDRip x264 5.1 ☻rDX☻

Video
ID : 2
Format : AVC
Format/Info : Advanced Video Codec
Format profile : [email protected]
Format settings, CABAC : Yes
Format settings, ReFrames : 4 frames
Codec ID : V_MPEG4/ISO/AVC
Duration : 1 h 38 min
Bit rate : 903 kb/s
Width : 1 280 pixels
Height : 688 pixels
Display aspect ratio : 1.85:1
Frame rate mode : Constant
Frame rate : 23.976 (24000/1001) FPS
Color space : YUV
Chroma subsampling : 4:2:0
Bit depth : 8 bits
Scan type : Progressive
Bits/(Pixel*Frame) : 0.043
Stream size : 619 MiB (68%)
Title : ☻rDX☻
Writing library : x264

Audio
ID : 1
Format : AC-3
Format/Info : Audio Coding 3
Mode extension : CM (complete main)
Format settings, Endianness : Big
Codec ID : A_AC3
Duration : 1 h 38 min
Bit rate mode : Constant
Bit rate : 384 kb/s
Channel(s) : 6 channels
Channel positions : Front: L C R, Side: L R, LFE
Sampling rate : 48.0 kHz
Frame rate : 31.250 FPS (1536 spf)
Bit depth : 16 bits
Compression mode : Lossy
Delay relative to video : -21 ms
Stream size : 271 MiB (30%)
Title : ☻rDX☻
Default : Yes
Forced : No



IMDB : http://www.imdb.com/title/tt4514646




Sharing Widget


No Comments For This Torrent . Be The First to Comment

You must Login to Comment . Click Here to Login

Menu 1

Some content in menu 1.

Tim Timmerman Hope Of America 2017 Movies 720p HDRip x264 5 1 with Sam (Size: 917.1 MB)
  Tim Timmerman Hope Of America 2017 Movies 720p HDRip x264 5 1 with Sam 917.1 MB
tracker name
udp://tracker.leechers-paradise.org:6969/announce
udp://zer0day.ch:1337/announce
udp://open.demonii.com:1337/announce
udp://tracker.coppersurfer.tk:6969/announce
udp://exodus.desync.com:6969/announce
µTorrent compatible trackers list

Relative Torrents

Torrent Name Size Age SEED LEECH
Mobile Suit Gundam The Origin III 2016 BRip x264-HAiKU[rarbg]
Posted by    iDope   in   Movies
454.1 MB 1 minute 784 521
SW548C
Posted by    iDope   in   Video
1.7 GB 1 minute 786 797
MX_Magazine_Hors-S_rie_-_Juillet_2018 pd
Posted by    iDope   in   Books
47.1 MB 1 minute 997 915
Barber, Ball and Bilk - Jazz Jamboree 2 D, 1998
Posted by    iDope   in   Music
196.8 MB 1 minute 643 175
Return to Montauk 2017 BDRip XviD AC3-EV[TGx]
Posted by    mazemaze16   in   Movies
1.4 GB 1 minute 906 826