Download | Albert Bassermann | Rangiye Diye Jao (Zee Bangla) - 14th June 2018 Video Watch Online

Sonu Ke Titu Ki Sweety (2018) 720p Hindi Torrent Free Download

Seeders : 879   &   Leechers : 619      15-06-2018 (5 days)
Sonu Ke Titu Ki Sweety (2018) 720p Hindi Torrent Download
Added: ago by shmasti ***** in Movies   1.2 GB   Hits : 17
Info Hash: 114626A8C109323D984DFE4E857A0ABA9D315FE7 Download
Sonu Ke Titu Ki Sweety (2018) 720p Hindi Torrent Download

Anonymous and Direct Download movies , software , shows...

Fast Safe Anonymous
movies, software, shows...
Sonu Ke Titu Ki Sweety
Comedy /Romance  .   138 min   7.4/10
Director : Luv Ranjan  
Writer: Rahul Mody  Luv Ranjan  
Tags: Sonu  Ke  Titu  Ki  Sweety  (2018)  

Released:
23 Feb 2018
Titu is going to marry a perfect woman named Sweety. Titu's best-friend Sonu doubts Sweety's character and tries to break the marriage while Sweety tries to do opposite and which leads to war between Bromance and Romance.

Torrent Description





General
Complete name : Sonu Ke Titu Ki Sweety (2018) 720p Hindi HDRip x264 AAC ESub by Full4movies.mkv
Format : Matroska
Format version : Version 4 / Version 2
File size : 1.23 GiB
Duration : 2 h 17 min
Overall bit rate : 1 278 kb/s
Encoded date : UTC 2018-06-14 18:49:54
Writing application : mkvmerge v8.1.0 ('Psychedelic Postcard') 32bit
Writing library : libebml v1.3.1 + libmatroska v1.4.2

Video
ID : 1
Format : AVC
Format/Info : Advanced Video Codec
Format profile : [email protected]
Format settings, CABAC : Yes
Format settings, RefFrames : 5 frames
Codec ID : V_MPEG4/ISO/AVC
Duration : 2 h 17 min
Bit rate : 1 152 kb/s
Width : 1 280 pixels
Height : 544 pixels
Display aspect ratio : 2.35:1
Frame rate mode : Constant
Frame rate : 29.970 (30000/1001) FPS
Color space : YUV
Chroma subsampling : 4:2:0
Bit depth : 8 bits
Scan type : Progressive
Bits/(Pixel*Frame) : 0.055
Stream size : 1.10 GiB (90%)
Writing library : x264 core 148 r2643 5c65704
Language : Hindi
Default : Yes
Forced : No

Audio
ID : 2
Format : AAC
Format/Info : Advanced Audio Codec
Format profile : LC
Codec ID : A_AAC
Duration : 2 h 17 min
Bit rate : 128 kb/s
Channel(s) : 2 channels
Channel positions : Front: L R
Sampling rate : 44.1 kHz
Frame rate : 43.066 FPS (1024 SPF)
Compression mode : Lossy
Stream size : 126 MiB (10%)
Language : Hindi
Default : Yes
Forced : No

Text
ID : 3
Format : UTF-8
Codec ID : S_TEXT/UTF8
Codec ID/Info : UTF-8 Plain Text
Duration : 2 h 14 min
Bit rate : 64 b/s
Count of elements : 2194
Stream size : 64.0 KiB (0%)
Default : Yes
Forced : No

Screen Shoots




Sharing Widget


No Comments For This Torrent . Be The First to Comment

You must Login to Comment . Click Here to Login

Menu 1

Some content in menu 1.

Sonu Ke Titu Ki Sweety (2018) 720p Hindi HDRip x264 AAC ESub by Full4m (Size: 1.2 GB)
  Sonu Ke Titu Ki Sweety (2018) 720p Hindi HDRip x264 AAC ESub by Full4m 1.2 GB
tracker name
udp://tracker.leechers-paradise.org:6969/announce
udp://zer0day.ch:1337/announce
udp://open.demonii.com:1337/announce
udp://tracker.coppersurfer.tk:6969/announce
udp://exodus.desync.com:6969/announce
µTorrent compatible trackers list

Relative Torrents

Torrent Name Size Age SEED LEECH
Landing Up 2018 720p WEB-DL AAC 1 H264-CRG[SN]
Posted by    iDope   in   Video
2.9 GB 36 seconds 251 692
Dragon Ball Super S04E16 1080p BluRay x24 HUN JAP-PTHD
Posted by    iDope   in   TV
442.1 MB 36 seconds 221 722
[thz la]BLACKED_100764-JANE_2160PTUSHY_10766-HALEY_2160P
Posted by    iDope   in   Video
7.7 GB 36 seconds 130 256
Black Panther 2018 720p BluRay DTS x264-EGi0N
Posted by    iDope   in   Movies
4.5 GB 36 seconds 963 326
Rocky 1976 4K Remaster (1080p Bluray X26 HEVC 10bit AAC 5 1 Tigole)
Posted by    uploadhero   in   Movies
3.6 GB 3 minutes 936 400