5x19 Chicago P.D.
Tajne života - Hayat Sırları (2017-) - Epizoda 04 Domace Serije

Rampage 2018 720p NEW HDCAM X264 HQMic L Torrent Free Download

Seeders : 576   &   Leechers : 273      17-04-2018 (4 days)
Rampage 2018 720p NEW HDCAM X264 HQMic L Torrent Download
Added: ago by LifeLongg ***** in Movies   1.2 GB   Hits : 15
Info Hash: 8394C7DFB862E1E5B26007BBA8837EB2B44ACC5D Download
Rampage 2018 720p NEW HDCAM X264 HQMic L Torrent Download

Anonymous and Direct Download movies , software , shows...

Fast Safe Anonymous
movies, software, shows...
Rampage
Action /Crime /Thriller  .   85 min   6.3/10
Director : Uwe Boll  
Writer: Uwe Boll  
Tags: Rampage  2018  720p  NEW  HDCAM  X264  

Released:
29 Apr 2010
A man with a thirst for revenge builds a full body armor from Kevlar and goes on a killing spree.

Torrent Description







******************************Thumbnail:**********************



******************************Screenshots:********************

Screenshot 1

Screenshot 2

Screenshot 3

Screenshot 4

Screenshot 5

Screenshot 6

Screenshot 7

Screenshot 8

Screenshot 9

Screenshot 0

**************************************************************

Complete name : Rampage.2018.720p.NEW.HDCAM.X264.HQMic.LLG.mp4
Format : MPEG-4
Format profile : Base Media
Codec ID : isom (isom/iso2/avc1/mp41)
File size : 1.14 GiB
Duration : 1 h 40 min
Overall bit rate : 1 636 kb/s
Writing application : Lavf57.56.101

Video
ID : 1
Format : AVC
Format/Info : Advanced Video Codec
Format profile : [email protected]
Format settings : CABAC / 4 Ref Frames
Format settings, CABAC : Yes
Format settings, RefFrames : 4 frames
Codec ID : avc1
Codec ID/Info : Advanced Video Coding
Duration : 1 h 40 min
Bit rate : 1 500 kb/s
Width : 1 280 pixels
Height : 608 pixels
Display aspect ratio : 2.105
Frame rate mode : Constant
Frame rate : 23.976 (23976/1000) FPS
Color space : YUV
Chroma subsampling : 4:2:0
Bit depth : 8 bits
Scan type : Progressive
Bits/(Pixel*Frame) : 0.080
Stream size : 1.05 GiB (92%)

Audio
ID : 2
Format : MPEG Audio
Format version : Version 1
Format profile : Layer 3
Format settings : Joint stereo / MS Stereo
Codec ID : mp4a-6B
Duration : 1 h 40 min
Bit rate mode : Constant
Bit rate : 128 kb/s
Channel(s) : 2 channels
Sampling rate : 44.1 kHz
Compression mode : Lossy
Stream size : 91.6 MiB (8%)
Writing library : LAME3.99.5
Default : Yes
Alternate group : 1




Sharing Widget


No Comments For This Torrent . Be The First to Comment

You must Login to Comment . Click Here to Login

Menu 1

Some content in menu 1.

Rampage 2018 720p NEW HDCAM X264 HQMic LLG (Size: 1.2 GB)
  Rampage 2018 720p NEW HDCAM X264 HQMic LLG 1.2 GB
tracker name
udp://tracker.leechers-paradise.org:6969/announce
udp://zer0day.ch:1337/announce
udp://open.demonii.com:1337/announce
udp://tracker.coppersurfer.tk:6969/announce
udp://exodus.desync.com:6969/announce
µTorrent compatible trackers list

Relative Torrents

Torrent Name Size Age SEED LEECH
Jimmy Fallon 2018 04 20 Anthony Mackie 70p WEB x264-TBS[N1C]
Posted by    NO1CARES   in   TV
785.3 MB 1 minute 217 238
Lee And Dean S01E04 720p HDTV x264-MTB[NC]
Posted by    NO1CARES   in   TV
507.9 MB 1 minute 329 844
Lee And Dean S01E04 HDTV x264-MTB[N1C]
Posted by    NO1CARES   in   TV
173.1 MB 1 minute 620 394
Real Time With Bill Maher 2018 04 20 720 HDTV X264-UAV[rarbg]
Posted by    SeekNDstroy   in   TV
991.1 MB 1 minute 557 627
BackroomCastingCouch - Carmen [720p] mp4
Posted by    iDope   in   Video
1.6 GB 2 minutes 413 933