John Hamilton | Apple SoundTrack Pro 3.0.1 [MACOSX] | IMDb: 6.6 HD The Kissing Booth

Nobody Famous 2018 720p WEB-DL x264 ESub Torrent Free Download

Seeders : 282   &   Leechers : 882      15-06-2018 (5 days)
Nobody Famous 2018 720p WEB-DL x264 ESub Torrent Download
Added: ago by moviezworldz ***** in Movies   831.6 MB   Hits : 12
Info Hash: 0E1FD82173782B1C2212B6ABD4CE8707D55CA309 Download
Nobody Famous 2018 720p WEB-DL x264 ESub Torrent Download

Anonymous and Direct Download movies , software , shows...

Fast Safe Anonymous
movies, software, shows...
Nobody Famous
Comedy /Drama  .   90 min   N/A/10
Director : Sarah Rotella  
Writer: Adrianna DiLonardo  
Tags: Nobody  Famous  2018  720p  WEB-DL  x264  

Released:
N/A
A group of aspiring actors' cottage weekend takes a turn for the worst when one of them finds out they've booked a blockbuster role, and the rest of the group's jealously takes hold where there's no one else around.

Torrent Description







General
Format : Matroska
Format version : Version 4 / Version 2
File size : 832 MiB
Duration : 1 h 29 min
Overall bit rate : 1 306 kb/s

Video
ID : 1
Format : AVC
Format/Info : Advanced Video Codec
Format profile : [email protected]
Format settings : CABAC / 4 Ref Frames
Format settings, CABAC : Yes
Format settings, RefFrames : 4 frames
Codec ID : V_MPEG4/ISO/AVC
Duration : 1 h 29 min
Bit rate : 1 200 kb/s
Width : 1 280 pixels
Height : 538 pixels
Display aspect ratio : 2.40:1
Frame rate mode : Constant
Frame rate : 23.976 (24000/1001) FPS
Color space : YUV
Chroma subsampling : 4:2:0
Bit depth : 8 bits
Scan type : Progressive
Bits/(Pixel*Frame) : 0.073
Stream size : 750 MiB (90%)
Writing library : x264 core 155 r2901 7d0ff22
Default : Yes
Forced : No

Audio
ID : 2
Format : AAC
Format/Info : Advanced Audio Codec
Format profile : HE-AAC / LC
Format settings : Explicit
Codec ID : A_AAC-2
Duration : 1 h 29 min
Bit rate : 127 kb/s
Channel(s) : 2 channels
Channel positions : Front: L R
Sampling rate : 48.0 kHz / 24.0 kHz
Frame rate : 23.438 FPS (1024 SPF)
Compression mode : Lossy
Stream size : 80.7 MiB (10%)
Language : English
Default : Yes
Forced : No

Text
ID : 3
Format : UTF-8
Codec ID : S_TEXT/UTF8
Codec ID/Info : UTF-8 Plain Text
Duration : 1 h 22 min
Bit rate : 77 b/s
Count of elements : 1524
Stream size : 47.1 KiB (0%)
Language : English
Default : Yes
Forced : No

Menu
00:00:00.000 : en:Cottage Weekend!
00:03:38.218 : en:Unpack and Unwind
00:09:24.522 : en:The Smoothie's Smooth
00:12:54.732 : en:Gossip and Tanning
00:17:44.063 : en:Legends of the Spring
00:21:53.270 : en:War and American Psychos
00:29:47.744 : en:She Got the Role!
00:36:57.173 : en:She Doesn't Deserve It
00:43:42.620 : en:Alone Time
00:51:03.018 : en:The Break Up
00:57:33.408 : en:The Drowning
01:03:16.751 : en:Where's Grace?
01:10:46.242 : en:Dani's Best Friend
01:14:35.471 : en:That Sucks for Dani
01:19:36.730 : en:This Is Our Moment
01:26:54.209 : en:End Credits

















Sharing Widget


No Comments For This Torrent . Be The First to Comment

You must Login to Comment . Click Here to Login

Menu 1

Some content in menu 1.

Nobody Famous 2018 720p WEB-DL x264 ESub [MW] (Size: 831.6 MB)
  Nobody Famous 2018 720p WEB-DL x264 ESub [MW] 831.6 MB
tracker name
udp://tracker.leechers-paradise.org:6969/announce
udp://zer0day.ch:1337/announce
udp://open.demonii.com:1337/announce
udp://tracker.coppersurfer.tk:6969/announce
udp://exodus.desync.com:6969/announce
µTorrent compatible trackers list

Relative Torrents

Torrent Name Size Age SEED LEECH
Landing Up 2018 720p WEB-DL AAC 1 H264-CRG[SN]
Posted by    iDope   in   Video
2.9 GB 1 minute 251 692
Dragon Ball Super S04E16 1080p BluRay x24 HUN JAP-PTHD
Posted by    iDope   in   TV
442.1 MB 1 minute 221 722
Black Panther 2018 720p BluRay DTS x264-EGi0N
Posted by    iDope   in   Movies
4.5 GB 1 minute 963 326
Jurassic World Fallen Kingdom 2018 NEW Poper 720p HC TS-AC3-NeNi[TGx]
Posted by    mazemaze16   in   Movies
1.4 GB 4 minutes 498 945
Футбол ЧМ 2018 Россия-Еипет 19 06 18 HDTVRip(AVC) by KinoH
Posted by    iDope   in   Video
1.4 GB 7 minutes 727 908