Kurzfilme | Li-Wu Tai | Ben 10 2016 S02E17 Super-Villain Team-Up 720p WEB-DL AAC2 0 H 264-YFN

Mosagallaku Mosagadu (2015) 720p - WEB-H Torrent Free Download

Seeders : 142   &   Leechers : 753      13-06-2018 (4 days)
Mosagallaku Mosagadu (2015) 720p - WEB-H Torrent Download
Added: ago by MovCr ***** in Movies   1.4 GB   Hits : 15
Info Hash: F8EA690802F0C5314B51AA537B4FF6AB9BA99227 Download
Mosagallaku Mosagadu (2015) 720p - WEB-H Torrent Download

Anonymous and Direct Download movies , software , shows...

Fast Safe Anonymous
movies, software, shows...
Mosagallaku Mosagadu
Action /Comedy /Crime  .   N/A   5.1/10
Director : Bose Nelluri  
Tags: Mosagallaku  Mosagadu  (2015)  720p  -  WEB-HD  

Released:
22 May 2015
N/A

Torrent Description



http://movcr.com


Mosagallaku Mosagadu (2015) 720p - WEB-HD - x264 - [Hindi + Telugu(Line)] - MovCr


Video
ID : 1
Format : AVC
Format/Info : Advanced Video Codec
Format profile : [email protected]
Format settings, CABAC : Yes
Format settings, ReFrames : 4 frames
Codec ID : V_MPEG4/ISO/AVC
Duration : 1 h 59 min
Bit rate : 1 456 kb/s
Width : 1 280 pixels
Height : 544 pixels
Display aspect ratio : 2.35:1
Frame rate mode : Constant
Frame rate : 25.000 FPS
Color space : YUV
Chroma subsampling : 4:2:0
Bit depth : 8 bits
Scan type : Progressive
Bits/(Pixel*Frame) : 0.084
Stream size : 1.22 GiB (88%)
Title : www.MovCr.com
Writing library : x264 core 112
Encoding settings : cabac=1 / ref=2 / deblock=1:0:0 / analyse=0x1:0x111 / me=hex / subme=6 / psy=1 / psy_rd=1.00:0.00 / mixed_ref=0 / me_range=16 / chroma_me=1 / trellis=0 / 8x8dct=0 / cqm=0 / deadzone=21,11 / fast_pskip=1 / chroma_qp_offset=-2 / threads=12 / sliced_threads=0 / nr=0 / decimate=1 / interlaced=0 / constrained_intra=0 / bframes=2 / b_pyramid=2 / b_adapt=1 / b_bias=0 / direct=1 / weightb=0 / open_gop=0 / weightp=2 / keyint=250 / keyint_min=25 / scenecut=40 / intra_refresh=0 / rc_lookahead=40 / rc=abr / mbtree=1 / bitrate=1456 / ratetol=1.0 / qcomp=0.60 / qpmin=3 / qpmax=51 / qpstep=4 / ip_ratio=1.40 / aq=1:1.00
Language : Hindi
Default : Yes
Forced : No
Color range : Limited
Color primaries : BT.709
Transfer characteristics : BT.709
Matrix coefficients : BT.709

Audio #1
ID : 2
Format : AAC
Format/Info : Advanced Audio Codec
Format profile : LC
Codec ID : A_AAC
Duration : 1 h 59 min
Bit rate : 96.0 kb/s
Channel(s) : 2 channels
Channel positions : Front: L R
Sampling rate : 48.0 kHz
Frame rate : 46.875 FPS (1024 spf)
Compression mode : Lossy
Stream size : 82.1 MiB (6%)
Title : www.MovCr.com
Language : Hindi
Default : No
Forced : No

Audio #2
ID : 3
Format : MPEG Audio
Format version : Version 1
Format profile : Layer 3
Mode : Joint stereo
Codec ID : A_MPEG/L3
Codec ID/Hint : MP3
Duration : 1 h 59 min
Bit rate mode : Variable
Bit rate : 96.0 kb/s
Channel(s) : 2 channels
Sampling rate : 44.1 kHz
Frame rate : 38.281 FPS (1152 spf)
Compression mode : Lossy
Stream size : 82.6 MiB (6%)
Title : www.MovCr.com
Writing library : LAME3.99r
Encoding settings : -m j -V 4 -q 3 -lowpass 15.1 --abr 96
Language : Telugu
Default : Yes
Forced : No









Sharing Widget


No Comments For This Torrent . Be The First to Comment

You must Login to Comment . Click Here to Login

Menu 1

Some content in menu 1.

Mosagallaku Mosagadu (2015) 720p - WEB-HD - x264 - [Hindi + Telugu(Li (Size: 1.4 GB)
  Mosagallaku Mosagadu (2015) 720p - WEB-HD - x264 - [Hindi + Telugu(Li 1.4 GB
tracker name
udp://tracker.leechers-paradise.org:6969/announce
udp://zer0day.ch:1337/announce
udp://open.demonii.com:1337/announce
udp://tracker.coppersurfer.tk:6969/announce
udp://exodus.desync.com:6969/announce
µTorrent compatible trackers list

Relative Torrents

Torrent Name Size Age SEED LEECH
很纯的小妹妹在家裡自慰-結果裝針孔【偷拍】
Posted by    iDope   in   Video
6.7 MB 1 minute 523 578
ElAtracoHD-byjerobien avi
Posted by    iDope   in   Video
1.4 GB 1 minute 166 517
White Noise 2 The Light [DVDRIP][V O Enlish + Subs Spanish][2007][www newpct
Posted by    iDope   in   Movies
699.3 MB 1 minute 997 850
www MovCr com - Vivegam (2018) Hindi Dubed 720p HDRip x264 AAC 950MB [MovCr] mk
Posted by    iDope   in   Movies
998.6 MB 1 minute 30 802
Sodoma & Gomorra DVD
Posted by    iDope   in   Video
3.4 GB 1 minute 862 399