Jekyll and Hyde | Angela Bassett | Arthur 3: The War of the Two Worlds (2010) Full Movie

Mosagallaku Mosagadu (2015) 1080p - WEB- Torrent Free Download

Seeders : 751   &   Leechers : 531      13-06-2018 (4 days)
Mosagallaku Mosagadu (2015) 1080p - WEB- Torrent Download
Added: ago by MovCr ***** in Movies   2.6 GB   Hits : 14
Info Hash: 20437706D4389857C89CF625F0325EADB349F036 Download
Mosagallaku Mosagadu (2015) 1080p - WEB- Torrent Download

Anonymous and Direct Download movies , software , shows...

Fast Safe Anonymous
movies, software, shows...
Mosagallaku Mosagadu
Action /Comedy /Crime  .   N/A   5.1/10
Director : Bose Nelluri  
Tags: Mosagallaku  Mosagadu  (2015)  1080p  -  WEB-HD  

Released:
22 May 2015
N/A

Torrent Description



http://movcr.com


Mosagallaku Mosagadu (2015) 1080p - WEB-HD - x264 - [Hindi + Telugu(Line)] - MovCr


Video
ID : 1
Format : AVC
Format/Info : Advanced Video Codec
Format profile : [email protected]
Format settings, CABAC : Yes
Format settings, ReFrames : 4 frames
Codec ID : V_MPEG4/ISO/AVC
Duration : 1 h 59 min
Bit rate : 3 000 kb/s
Width : 2 220 pixels
Height : 1 080 pixels
Display aspect ratio : 2.25:1
Frame rate mode : Constant
Frame rate : 25.000 FPS
Color space : YUV
Chroma subsampling : 4:2:0
Bit depth : 8 bits
Scan type : Progressive
Bits/(Pixel*Frame) : 0.050
Stream size : 2.51 GiB (95%)
Title : www.MovCr.com
Writing library : x264 core 152 r2854 e9a5903
Encoding settings : cabac=1 / ref=3 / deblock=1:0:0 / analyse=0x3:0x113 / me=hex / subme=7 / psy=1 / psy_rd=1.00:0.00 / mixed_ref=1 / me_range=16 / chroma_me=1 / trellis=1 / 8x8dct=1 / cqm=0 / deadzone=21,11 / fast_pskip=1 / chroma_qp_offset=-2 / threads=34 / lookahead_threads=5 / sliced_threads=0 / nr=0 / decimate=1 / interlaced=0 / bluray_compat=0 / constrained_intra=0 / bframes=3 / b_pyramid=2 / b_adapt=1 / b_bias=0 / direct=1 / weightb=1 / open_gop=0 / weightp=2 / keyint=50 / keyint_min=26 / scenecut=0 / intra_refresh=0 / rc_lookahead=40 / rc=abr / mbtree=1 / bitrate=3000 / ratetol=1.0 / qcomp=0.60 / qpmin=0 / qpmax=69 / qpstep=4 / ip_ratio=1.40 / aq=1:1.00
Language : Hindi
Default : Yes
Forced : No

Audio #1
ID : 2
Format : AAC
Format/Info : Advanced Audio Codec
Format profile : LC
Codec ID : A_AAC
Duration : 1 h 59 min
Bit rate : 64.5 kb/s
Channel(s) : 2 channels
Channel positions : Front: L R
Sampling rate : 48.0 kHz
Frame rate : 46.875 FPS (1024 spf)
Compression mode : Lossy
Delay relative to video : -80 ms
Stream size : 55.1 MiB (2%)
Title : www.MovCr.com
Language : Hindi
Default : Yes
Forced : No

Audio #2
ID : 3
Format : MPEG Audio
Format version : Version 1
Format profile : Layer 3
Mode : Joint stereo
Codec ID : A_MPEG/L3
Codec ID/Hint : MP3
Duration : 1 h 59 min
Bit rate mode : Variable
Bit rate : 96.0 kb/s
Channel(s) : 2 channels
Sampling rate : 44.1 kHz
Frame rate : 38.281 FPS (1152 spf)
Compression mode : Lossy
Delay relative to video : -80 ms
Stream size : 82.6 MiB (3%)
Title : www.MovCr.com
Writing library : LAME3.99r
Encoding settings : -m j -V 4 -q 3 -lowpass 15.1 --abr 96
Language : Telugu
Default : No
Forced : No









Sharing Widget


No Comments For This Torrent . Be The First to Comment

You must Login to Comment . Click Here to Login

Menu 1

Some content in menu 1.

Mosagallaku Mosagadu (2015) 1080p - WEB-HD - x264 - [Hindi + Telugu(L (Size: 2.6 GB)
  Mosagallaku Mosagadu (2015) 1080p - WEB-HD - x264 - [Hindi + Telugu(L 2.6 GB
tracker name
udp://tracker.leechers-paradise.org:6969/announce
udp://zer0day.ch:1337/announce
udp://open.demonii.com:1337/announce
udp://tracker.coppersurfer.tk:6969/announce
udp://exodus.desync.com:6969/announce
µTorrent compatible trackers list

Relative Torrents

Torrent Name Size Age SEED LEECH
Wicked Tuna S07E15 Changing the Tide 720 HDTV x264-DHD[eztv]
Posted by    EZTVag   in   TV
1.4 GB 1 minute 762 621
很纯的小妹妹在家裡自慰-結果裝針孔【偷拍】
Posted by    iDope   in   Video
6.7 MB 3 minutes 523 578
ElAtracoHD-byjerobien avi
Posted by    iDope   in   Video
1.4 GB 3 minutes 166 517
White Noise 2 The Light [DVDRIP][V O Enlish + Subs Spanish][2007][www newpct
Posted by    iDope   in   Movies
699.3 MB 3 minutes 997 850
www MovCr com - Vivegam (2018) Hindi Dubed 720p HDRip x264 AAC 950MB [MovCr] mk
Posted by    iDope   in   Movies
998.6 MB 3 minutes 30 802