Más detalles | Alexander Skarsgård | Sci-Fi / Fantasy

Mera Saathi (2018) Hindi Dubbed (Audio C Torrent Free Download

Seeders : 182   &   Leechers : 749      15-06-2018 (5 days)
Mera Saathi (2018) Hindi Dubbed (Audio C Torrent Download
Added: ago by shmasti ***** in Movies   797.4 MB   Hits : 15
Info Hash: 64066D08C077502A6FEC3A1850F5EFB2E58B1070 Download
Mera Saathi (2018) Hindi Dubbed (Audio C Torrent Download

Anonymous and Direct Download movies , software , shows...

Fast Safe Anonymous
movies, software, shows...
Mera Saathi
Drama   .   N/A   5.6/10
Starring : Asrani  Bharat Bhushan  Aruna Irani  Manik Irani  
Director : K. Raghavendra Rao  
Tags: Mera  Saathi  (2018)  Hindi  Dubbed  (Audio  

Released:
N/A
N/A

Torrent Description





General
Complete name : Mera Saathi (2018) Hindi Dubbed (Audio Cleaned) HDTVRip x264 AC3 by Full4movies.mkv
Format : Matroska
Format version : Version 4 / Version 2
File size : 797 MiB
Duration : 1 h 59 min
Overall bit rate : 934 kb/s
Encoded date : UTC 2018-06-15 05:07:08
Writing application : mkvmerge v8.1.0 ('Psychedelic Postcard') 32bit
Writing library : libebml v1.3.1 + libmatroska v1.4.2

Video
ID : 1
Format : AVC
Format/Info : Advanced Video Codec
Format profile : [email protected]
Format settings, CABAC : Yes
Format settings, RefFrames : 4 frames
Codec ID : V_MPEG4/ISO/AVC
Duration : 1 h 59 min
Bit rate : 548 kb/s
Width : 1 024 pixels
Height : 424 pixels
Display aspect ratio : 2.40:1
Frame rate mode : Constant
Frame rate : 25.000 FPS
Color space : YUV
Chroma subsampling : 4:2:0
Bit depth : 8 bits
Scan type : Progressive
Bits/(Pixel*Frame) : 0.050
Stream size : 468 MiB (59%)
Writing library : x264 core 155 r2901 7d0ff22
Default : Yes
Forced : No

Audio
ID : 2
Format : AC-3
Format/Info : Audio Coding 3
Format settings, Endianness : Big
Codec ID : A_AC3
Duration : 1 h 59 min
Bit rate mode : Constant
Bit rate : 384 kb/s
Channel(s) : 2 channels
Channel positions : Front: L R
Sampling rate : 48.0 kHz
Frame rate : 31.250 FPS (1536 SPF)
Bit depth : 16 bits
Compression mode : Lossy
Stream size : 328 MiB (41%)
Language : Hindi
Service kind : Complete Main
Default : Yes
Forced : No

Screen Shoots




Sharing Widget


No Comments For This Torrent . Be The First to Comment

You must Login to Comment . Click Here to Login

Menu 1

Some content in menu 1.

Mera Saathi (2018) Hindi Dubbed (Audio Cleaned) HDTVRip x264 AC3 by Fu (Size: 797.4 MB)
  Mera Saathi (2018) Hindi Dubbed (Audio Cleaned) HDTVRip x264 AC3 by Fu 797.4 MB
tracker name
udp://tracker.leechers-paradise.org:6969/announce
udp://zer0day.ch:1337/announce
udp://open.demonii.com:1337/announce
udp://tracker.coppersurfer.tk:6969/announce
udp://exodus.desync.com:6969/announce
µTorrent compatible trackers list

Relative Torrents

Torrent Name Size Age SEED LEECH
Dragon Ball Super S04E16 1080p BluRay x24 HUN JAP-PTHD
Posted by    iDope   in   TV
442.1 MB 1 minute 221 722
Cesare Deve Morire (V O S E) 2012 DVDRipXvid Ac3 TuCenTral avi
Posted by    iDope   in   Movies
699.4 MB 1 minute 795 173
Black Panther 2018 720p BluRay DTS x264-EGi0N
Posted by    iDope   in   Movies
4.5 GB 1 minute 963 326
Jurassic World Fallen Kingdom 2018 NEW Poper 720p HC TS-AC3-NeNi[TGx]
Posted by    mazemaze16   in   Movies
1.4 GB 4 minutes 498 945
Футбол ЧМ 2018 Россия-Еипет 19 06 18 HDTVRip(AVC) by KinoH
Posted by    iDope   in   Video
1.4 GB 7 minutes 727 908