Tracklist and Download links | Tracklist and Download links | Tracklist and Download links

Kickboxer Retaliation 2018 Movies BRRip Torrent Free Download

Seeders : 950   &   Leechers : 880      14-03-2018 (3 months)
Kickboxer Retaliation 2018 Movies BRRip Torrent Download
Added: ago by nehalpuja ***** in Movies   846.3 MB   Hits : 21
Info Hash: FE8F8FEB91B4A301E3929D2CCB86794B9617CBEC Download
Kickboxer Retaliation 2018 Movies BRRip Torrent Download

Anonymous and Direct Download movies , software , shows...

Fast Safe Anonymous
movies, software, shows...
Kickboxer: Retaliation
Action /Drama  .   110 min   5.0/10
Director : Dimitri Logothetis  
Tags: Kickboxer  Retaliation  2018  Movies  BRRip  x264  

Released:
26 Jan 2018
One year after the events of "Kickboxer: Vengeance", Kurt Sloan has vowed never to return to Thailand. However, while gearing up for a MMA title shot, he finds himself sedated and forced back into Thailand, this time in prison. He is there because the ones responsi.... See More ble want him to face a 6'8" 400 lbs. beast named Mongkut and in return for the fight, Kurt will get two million dollars and his freedom back. Kurt at first refuses, in which a bounty is placed on his head as a way to force him to face Mongkut. Kurt soon learns he will have no other choice and will undergo his most rigorous training yet under some unexpected mentors in order to face Mongkut in hopes to regain his freedom.

Torrent Description



Kickboxer Retaliation 2018 Movies BRRip x264 5.1 with Sample ☻rDX☻
===============================================================================================

SCREEN SHOTS:



or

http://postimage.co.nr/2018/3/course/1.html

File size : 839 MiB
Duration : 1 h 50 min
Overall bit rate mode : Constant
Overall bit rate : 1 062 kb/s
Movie name : Kickboxer Retaliation 2018 Movies BRRip x264 5.1 ☻rDX☻

Video
ID : 2
Format : AVC
Format/Info : Advanced Video Codec
Format profile : [email protected]
Format settings, CABAC : Yes
Format settings, ReFrames : 2 frames
Format settings, GOP : M=1, N=12
Codec ID : V_MPEG4/ISO/AVC
Duration : 1 h 50 min
Bit rate mode : Constant
Bit rate : 679 kb/s
Width : 720 pixels
Height : 304 pixels
Display aspect ratio : 2.35:1
Frame rate mode : Constant
Frame rate : 23.976 FPS
Color space : YUV
Chroma subsampling : 4:2:0
Bit depth : 8 bits
Scan type : Progressive
Bits/(Pixel*Frame) : 0.129
Stream size : 519 MiB (62%)
Title : ☻rDX☻
Default : Yes
Forced : No

Audio
ID : 1
Format : AC-3
Format/Info : Audio Coding 3
Mode extension : CM (complete main)
Format settings, Endianness : Big
Codec ID : A_AC3
Duration : 1 h 50 min
Bit rate mode : Constant
Bit rate : 384 kb/s
Channel(s) : 6 channels
Channel positions : Front: L C R, Side: L R, LFE
Sampling rate : 48.0 kHz
Frame rate : 31.250 FPS (1536 spf)
Bit depth : 16 bits
Compression mode : Lossy
Stream size : 303 MiB (36%)
Title : ☻rDX☻
Default : Yes
Forced : No



IMDB : http://www.imdb.com/title/tt5208950




Sharing Widget


No Comments For This Torrent . Be The First to Comment

You must Login to Comment . Click Here to Login

Menu 1

Some content in menu 1.

Kickboxer Retaliation 2018 Movies BRRip x264 5 1 with Sample ☻rDX☻ (Size: 846.3 MB)
  Kickboxer Retaliation 2018 Movies BRRip x264 5 1 with Sample ☻rDX☻ 846.3 MB
tracker name
udp://tracker.leechers-paradise.org:6969/announce
udp://zer0day.ch:1337/announce
udp://open.demonii.com:1337/announce
udp://tracker.coppersurfer.tk:6969/announce
udp://exodus.desync.com:6969/announce
µTorrent compatible trackers list

Relative Torrents

Torrent Name Size Age SEED LEECH
Janis Joplin - Joplin In Concert (1972)@lac
Posted by    alekow   in   Music
517.8 MB 1 minute 885 974
Mobile Suit Gundam The Origin III 2016 BRip x264-HAiKU[rarbg]
Posted by    iDope   in   Movies
454.1 MB 4 minutes 784 521
SW548C
Posted by    iDope   in   Video
1.7 GB 4 minutes 786 797
MX_Magazine_Hors-S_rie_-_Juillet_2018 pd
Posted by    iDope   in   Books
47.1 MB 4 minutes 997 915
Barber, Ball and Bilk - Jazz Jamboree 2 D, 1998
Posted by    iDope   in   Music
196.8 MB 4 minutes 643 175