Wszystkie RMVB | Vom Ende einer Geschichte | Chris & Don. ...

Justice League (2017) (1080p BluRay x265 Torrent Free Download

Seeders : 20   &   Leechers : 858      14-03-2018 (3 months)
Justice League (2017) (1080p BluRay x265 Torrent Download
Added: ago by UTRCorp ***** in Movies   5.4 GB   Hits : 25
Info Hash: 07BCCE2174F4CAC362A35BBFCC09AC7C56D22248 Download
Justice League (2017) (1080p BluRay x265 Torrent Download

Anonymous and Direct Download movies , software , shows...

Fast Safe Anonymous
movies, software, shows...
Justice League
Action /Adventure /Fantasy  .   120 min   6.7/10
Starring : Ben Affleck  Henry Cavill  Amy Adams  Gal Gadot  
Director : Zack Snyder  
Tags: Justice  League  (2017)  (1080p  BluRay  x265  

Released:
17 Nov 2017
Fueled by his restored faith in humanity and inspired by Superman's selfless act, Bruce Wayne enlists the help of his newfound ally, Diana Prince, to face an even greater enemy. Together, Batman and Wonder Woman work quickly to find and recruit a team of metahumans.... See More to stand against this newly awakened threat. But despite the formation of this unprecedented league of heroes-Batman, Wonder Woman, Aquaman, Cyborg and The Flash-it may already be too late to save the planet from an assault of catastrophic proportions.

Torrent Description










Media Information

Media Information

Code:

General
Format : Matroska
Format version : Version 4 / Version 2
File size : 4.94 GiB
Duration : 3 h 2 min
Overall bit rate : 3 889 kb/s
Movie name : Justice League 2017 (1080p x265 q22 S86 Joy)[UTR]
Encoded date : UTC 2018-03-11 23:11:12
Writing application : mkvmerge v21.0.0 ('Tardigrades Will Inherit The Earth') 64-bit
Writing library : libebml v1.3.5 + libmatroska v1.4.8
Cover : Yes
Attachments : cover.jpg
Writing frontend : StaxRip v1.7.0.3

Video
ID : 1
Format : HEVC
Format/Info : High Efficiency Video Coding
Format profile : Main [email protected]@Main
Codec ID : V_MPEGH/ISO/HEVC
Duration : 2 h 0 min
Bit rate : 5 009 kb/s
Width : 1 920 pixels
Height : 1 080 pixels
Display aspect ratio : 16:9
Frame rate mode : Constant
Frame rate : 23.976 (24000/1001) FPS
Color space : YUV
Chroma subsampling : 4:2:0
Bit depth : 10 bits
Bits/(Pixel*Frame) : 0.101
Stream size : 4.20 GiB (85%)
Writing library : x265 2.6+32-b763c22920f6:[Windows][MSVC 1912][64 bit] 10bit
Encoding settings : cpuid=1173503 / frame-threads=3 / numa-pools=8 / wpp / no-pmode / no-pme / no-psnr / ssim / log-level=2 / input-csp=1 / input-res=1920x1080 / interlace=0 / total-frames=172690 / level-idc=0 / high-tier=1 / uhd-bd=0 / ref=4 / no-allow-non-conformance / no-repeat-headers / annexb / no-aud / no-hrd / info / hash=0 / no-temporal-layers / open-gop / min-keyint=23 / keyint=250 / gop-lookahead=0 / bframes=4 / b-adapt=2 / b-pyramid / bframe-bias=0 / rc-lookahead=50 / lookahead-slices=4 / scenecut=40 / radl=0 / no-intra-refresh / ctu=64 / min-cu-size=8 / rect / no-amp / max-tu-size=32 / tu-inter-depth=1 / tu-intra-depth=1 / limit-tu=0 / rdoq-level=2 / dynamic-rd=0.00 / no-ssim-rd / signhide / no-tskip / nr-intra=0 / nr-inter=0 / no-constrained-intra / strong-intra-smoothing / max-merge=3 / limit-refs=3 / limit-modes / me=3 / subme=3 / merange=57 / temporal-mvp / weightp / no-weightb / no-analyze-src-pics / deblock=0:0 / sao / no-sao-non-deblock / rd=4 / no-early-skip / rskip / no-fast-intra / no-tskip-fast / no-cu-lossless / no-b-intra / no-splitrd-skip / rdpenalty=0 / psy-rd=2.00 / psy-rdoq=1.00 / no-rd-refine / no-lossless / cbqpoffs=0 / crqpoffs=0 / rc=crf / crf=22.0 / qcomp=0.60 / qpstep=4 / stats-write=0 / stats-read=0 / ipratio=1.40 / pbratio=1.30 / aq-mode=3 / aq-strength=1.00 / cutree / zone-count=0 / no-strict-cbr / qg-size=32 / no-rc-grain / qpmax=69 / qpmin=0 / no-const-vbv / sar=0 / overscan=0 / videoformat=5 / range=1 / colorprim=2 / transfer=2 / colormatrix=2 / chromaloc=0 / display-window=0 / max-cll=0,0 / min-luma=0 / max-luma=1023 / log2-max-poc-lsb=8 / vui-timing-info / vui-hrd-info / slices=1 / no-opt-qp-pps / no-opt-ref-list-length-pps / no-multi-pass-opt-rps / scenecut-bias=0.05 / no-opt-cu-delta-qp / no-aq-motion / no-hdr / no-hdr-opt / no-dhdr10-opt / analysis-reuse-level=5 / scale-factor=0 / refine-intra=0 / refine-inter=0 / refine-mv=0 / no-limit-sao / ctu-info=0 / no-lowpass-dct / refine-mv-type=0 / copy-pic=1
Default : Yes
Forced : No
Color range : Full

Audio #1
ID : 2
Format : AAC
Format/Info : Advanced Audio Codec
Format profile : LC
Codec ID : A_AAC
Duration : 2 h 0 min
Bit rate : 604 kb/s
Channel(s) : 7 channels
Channel(s)_Original : 8 channels
Channel positions : Front: L C R, Side: L R, Back: L R, LFE
Sampling rate : 48.0 kHz
Frame rate : 46.875 FPS (1024 spf)
Compression mode : Lossy
Delay relative to video : 9 ms
Stream size : 519 MiB (10%)
Language : English
Default : Yes
Forced : No

Audio #2
ID : 3
Format : AAC
Format/Info : Advanced Audio Codec
Format profile : LC
Codec ID : A_AAC
Duration : 2 h 0 min
Bit rate : 86.3 kb/s
Channel(s) : 2 channels
Channel positions : Front: L R
Sampling rate : 48.0 kHz
Frame rate : 46.875 FPS (1024 spf)
Compression mode : Lossy
Delay relative to video : 9 ms
Stream size : 74.1 MiB (1%)
Language : French
Default : No
Forced : No

Audio #3
ID : 4
Format : AAC
Format/Info : Advanced Audio Codec
Format profile : LC
Codec ID : A_AAC
Duration : 2 h 0 min
Bit rate : 85.8 kb/s
Channel(s) : 2 channels
Channel positions : Front: L R
Sampling rate : 48.0 kHz
Frame rate : 46.875 FPS (1024 spf)
Compression mode : Lossy
Delay relative to video : 9 ms
Stream size : 73.7 MiB (1%)
Language : Spanish
Default : No
Forced : No

Audio #4
ID : 5
Format : AAC
Format/Info : Advanced Audio Codec
Format profile : LC
Codec ID : A_AAC
Duration : 2 h 0 min
Bit rate : 86.0 kb/s
Channel(s) : 2 channels
Channel positions : Front: L R
Sampling rate : 48.0 kHz
Frame rate : 46.875 FPS (1024 spf)
Compression mode : Lossy
Delay relative to video : 9 ms
Stream size : 73.8 MiB (1%)
Language : Portuguese
Default : No
Forced : No

Subtitle #1
ID : 6
Format : VobSub
Muxing mode : zlib
Codec ID : S_VOBSUB
Codec ID/Info : Picture based subtitle format used on DVDs
Duration : 1 h 59 min
Bit rate : 8 514 b/s
Count of elements : 1507
Stream size : 7.25 MiB (0%)
Language : English
Default : No
Forced : No

Subtitle #2
ID : 7
Format : VobSub
Muxing mode : zlib
Codec ID : S_VOBSUB
Codec ID/Info : Picture based subtitle format used on DVDs
Duration : 1 h 59 min
Bit rate : 6 029 b/s
Count of elements : 1249
Stream size : 5.14 MiB (0%)
Language : French
Default : No
Forced : No

Subtitle #3
ID : 8
Format : VobSub
Muxing mode : zlib
Codec ID : S_VOBSUB
Codec ID/Info : Picture based subtitle format used on DVDs
Duration : 1 h 59 min
Bit rate : 6 923 b/s
Count of elements : 1249
Stream size : 5.90 MiB (0%)
Language : Spanish
Default : No
Forced : No

Subtitle #4
ID : 9
Format : VobSub
Muxing mode : zlib
Codec ID : S_VOBSUB
Codec ID/Info : Picture based subtitle format used on DVDs
Duration : 1 h 47 min
Bit rate : 80 b/s
Count of elements : 14
Stream size : 63.7 KiB (0%)
Language : Spanish
Default : No
Forced : No

Subtitle #5
ID : 10
Format : VobSub
Muxing mode : zlib
Codec ID : S_VOBSUB
Codec ID/Info : Picture based subtitle format used on DVDs
Duration : 1 h 59 min
Bit rate : 6 971 b/s
Count of elements : 1249
Stream size : 5.94 MiB (0%)
Language : Portuguese
Default : No
Forced : No

Subtitle #6
ID : 11
Format : VobSub
Muxing mode : zlib
Codec ID : S_VOBSUB
Codec ID/Info : Picture based subtitle format used on DVDs
Duration : 1 h 47 min
Bit rate : 74 b/s
Count of elements : 15
Stream size : 59.1 KiB (0%)
Language : Portuguese
Default : No
Forced : No

Subtitle #7
ID : 12
Format : VobSub
Muxing mode : zlib
Codec ID : S_VOBSUB
Codec ID/Info : Picture based subtitle format used on DVDs
Duration : 1 h 57 min
Bit rate : 120 b/s
Count of elements : 21
Stream size : 104 KiB (0%)
Language : French
Default : No
Forced : No

Subtitle #8
ID : 13
Format : UTF-8
Codec ID : S_TEXT/UTF8
Codec ID/Info : UTF-8 Plain Text
Duration : 1 h 51 min
Bit rate : 67 b/s
Count of elements : 1193
Stream size : 54.8 KiB (0%)
Language : Arabic
Default : No
Forced : No

Subtitle #9
ID : 14
Format : UTF-8
Codec ID : S_TEXT/UTF8
Codec ID/Info : UTF-8 Plain Text
Duration : 2 h 0 min
Bit rate : 95 b/s
Count of elements : 1235
Stream size : 84.1 KiB (0%)
Language : Bengali
Default : No
Forced : No

Subtitle #10
ID : 15
Format : UTF-8
Codec ID : S_TEXT/UTF8
Codec ID/Info : UTF-8 Plain Text
Duration : 1 h 59 min
Bit rate : 35 b/s
Count of elements : 1215
Stream size : 30.7 KiB (0%)
Language : Chinese
Default : No
Forced : No

Subtitle #11
ID : 16
Format : UTF-8
Codec ID : S_TEXT/UTF8
Codec ID/Info : UTF-8 Plain Text
Duration : 1 h 59 min
Bit rate : 40 b/s
Count of elements : 937
Stream size : 35.6 KiB (0%)
Language : Danish
Default : No
Forced : No

Subtitle #12
ID : 17
Format : UTF-8
Codec ID : S_TEXT/UTF8
Codec ID/Info : UTF-8 Plain Text
Duration : 1 h 58 min
Bit rate : 42 b/s
Count of elements : 892
Stream size : 36.7 KiB (0%)
Language : Dutch
Default : No
Forced : No

Subtitle #13
ID : 18
Format : UTF-8
Codec ID : S_TEXT/UTF8
Codec ID/Info : UTF-8 Plain Text
Duration : 1 h 58 min
Bit rate : 75 b/s
Count of elements : 1274
Stream size : 65.2 KiB (0%)
Language : Persian
Default : No
Forced : No

Subtitle #14
ID : 19
Format : UTF-8
Codec ID : S_TEXT/UTF8
Codec ID/Info : UTF-8 Plain Text
Duration : 1 h 59 min
Bit rate : 38 b/s
Count of elements : 1248
Stream size : 33.4 KiB (0%)
Language : Finnish
Default : No
Forced : No

Subtitle #15
ID : 20
Format : UTF-8
Codec ID : S_TEXT/UTF8
Codec ID/Info : UTF-8 Plain Text
Duration : 1 h 58 min
Bit rate : 57 b/s
Count of elements : 1252
Stream size : 50.3 KiB (0%)
Language : Hebrew
Default : No
Forced : No

Subtitle #16
ID : 21
Format : UTF-8
Codec ID : S_TEXT/UTF8
Codec ID/Info : UTF-8 Plain Text
Duration : 1 h 59 min
Bit rate : 43 b/s
Count of elements : 1311
Stream size : 38.5 KiB (0%)
Language : Indonesian
Default : No
Forced : No

Subtitle #17
ID : 22
Format : UTF-8
Codec ID : S_TEXT/UTF8
Codec ID/Info : UTF-8 Plain Text
Duration : 1 h 59 min
Bit rate : 44 b/s
Count of elements : 1395
Stream size : 39.4 KiB (0%)
Language : Malay
Default : No
Forced : No

Subtitle #18
ID : 23
Format : UTF-8
Codec ID : S_TEXT/UTF8
Codec ID/Info : UTF-8 Plain Text
Duration : 1 h 59 min
Bit rate : 39 b/s
Count of elements : 1153
Stream size : 34.6 KiB (0%)
Language : Norwegian
Default : No
Forced : No

Subtitle #19
ID : 24
Format : UTF-8
Codec ID : S_TEXT/UTF8
Codec ID/Info : UTF-8 Plain Text
Duration : 1 h 58 min
Bit rate : 43 b/s
Count of elements : 1154
Stream size : 37.4 KiB (0%)
Language : Romanian
Default : No
Forced : No

Subtitle #20
ID : 25
Format : UTF-8
Codec ID : S_TEXT/UTF8
Codec ID/Info : UTF-8 Plain Text
Duration : 1 h 59 min
Bit rate : 39 b/s
Count of elements : 1250
Stream size : 34.7 KiB (0%)
Language : Swedish
Default : No
Forced : No

Subtitle #21
ID : 26
Format : UTF-8
Codec ID : S_TEXT/UTF8
Codec ID/Info : UTF-8 Plain Text
Duration : 1 h 59 min
Bit rate : 94 b/s
Count of elements : 1254
Stream size : 83.1 KiB (0%)
Language : Thai
Default : No
Forced : No

Subtitle #22
ID : 27
Format : UTF-8
Codec ID : S_TEXT/UTF8
Codec ID/Info : UTF-8 Plain Text
Duration : 1 h 58 min
Bit rate : 38 b/s
Count of elements : 1118
Stream size : 33.1 KiB (0%)
Language : Turkish
Default : No
Forced : No

Subtitle #23
ID : 28
Format : UTF-8
Codec ID : S_TEXT/UTF8
Codec ID/Info : UTF-8 Plain Text
Duration : 3 h 2 min
Bit rate : 38 b/s
Count of elements : 1285
Stream size : 50.9 KiB (0%)
Language : Vietnamese
Default : No
Forced : No

Menu
00:00:00.000 : en:Chapter 01
00:10:56.155 : en:Chapter 02
00:19:16.488 : en:Chapter 03
00:30:41.673 : en:Chapter 04
00:40:19.667 : en:Chapter 05
00:49:56.535 : en:Chapter 06
01:01:26.891 : en:Chapter 07
01:09:41.552 : en:Chapter 08
01:19:18.587 : en:Chapter 09
01:30:34.512 : en:Chapter 10
01:40:33.569 : en:Chapter 11
01:48:43.058 : en:Chapter 12



Source Information

Code:

Release:
Justice_League_t03.mkv (24.15 GBs)






Note From UTR
We have no issue with individuals posting or re-uploading our torrents on a platform we aren't on. However, if this is something you'd like to do, please do so in a 'as-is' format. We ask that you do not create a new torrent, include all descriptions you see above including the UTR logo, tags, notes and screenshots. If you'd like to become a permanent poster on a website we don't post to, feel free to get in contact with a UniTeam member.




Sharing Widget


No Comments For This Torrent . Be The First to Comment

You must Login to Comment . Click Here to Login

Menu 1

Some content in menu 1.

Justice League (2017) (1080p BluRay x265 HEVC 10bit AAC 7 1 Q22 Joy) [ (Size: 5.4 GB)
  Justice League (2017) (1080p BluRay x265 HEVC 10bit AAC 7 1 Q22 Joy) [ 5.4 GB
tracker name
udp://tracker.leechers-paradise.org:6969/announce
udp://zer0day.ch:1337/announce
udp://open.demonii.com:1337/announce
udp://tracker.coppersurfer.tk:6969/announce
udp://exodus.desync.com:6969/announce
µTorrent compatible trackers list

Relative Torrents

Torrent Name Size Age SEED LEECH
Janis Joplin - Joplin In Concert (1972)@lac
Posted by    alekow   in   Music
517.8 MB 55 seconds 885 974
Mobile Suit Gundam The Origin III 2016 BRip x264-HAiKU[rarbg]
Posted by    iDope   in   Movies
454.1 MB 3 minutes 784 521
(C72) [studio empty (Nishi)] Otoko yu deDokkiri! EP0 (Detective Conan) [English
Posted by    iDope   in   Anime
11.2 MB 3 minutes 141 755
MX_Magazine_Hors-S_rie_-_Juillet_2018 pd
Posted by    iDope   in   Books
47.1 MB 3 minutes 997 915
Barber, Ball and Bilk - Jazz Jamboree 2 D, 1998
Posted by    iDope   in   Music
196.8 MB 3 minutes 643 175