Ishqbaaz 8th June 2018 Episode Watch Online | I’m Dying Up Here | Regarder

Jigarbaaz (Vismaya) 2018 Hindi Dubbed Mo Torrent Free Download

Seeders : 770   &   Leechers : 809      15-06-2018 (5 days)
Jigarbaaz (Vismaya) 2018 Hindi Dubbed Mo Torrent Download
Added: ago by pornworld ***** in Movies   1.2 GB   Hits : 14
Info Hash: 4CA80FBC62E9295F4146E5787033B10E47857645 Download
Jigarbaaz (Vismaya) 2018 Hindi Dubbed Mo Torrent Download

Anonymous and Direct Download movies , software , shows...

Fast Safe Anonymous
movies, software, shows...

Torrent Description





screens...
http://www.spaste.com/s/TxSbaW

Jigarbaaz (Vismaya) 2018 Hindi Dubbed Movie DVDRip x264 MP4

General
Complete name : Jigarbaaz (Vismaya) 2018 Hindi Dubbed Movie DVDRip x264 MP4.mp4
Format : MPEG-4
Format profile : Base Media
Codec ID : isom (isom/iso2/avc1/mp41)
File size : 993 MiB
Duration : 1 h 53 min
Overall bit rate : 1 225 kb/s
Writing application : Lavf56.40.101
Video
ID : 1
Format : AVC
Format/Info : Advanced Video Codec
Format profile : [email protected]
Format settings : CABAC / 3 Ref Frames
Format settings, CABAC : Yes
Format settings, RefFrames : 3 frames
Codec ID : avc1
Codec ID/Info : Advanced Video Coding
Duration : 1 h 53 min
Duration_FirstFrame : -40 ms
Bit rate : 1 093 kb/s
Width : 1 920 pixels
Height : 1 080 pixels
Display aspect ratio : 16:9
Frame rate mode : Variable
Frame rate : 25.000 FPS
Minimum frame rate : 25.000 FPS
Maximum frame rate : 25.014 FPS
Color space : YUV
Chroma subsampling : 4:2:0
Bit depth : 8 bits
Scan type : Progressive
Bits/(Pixel*Frame) : 0.021
Stream size : 886 MiB (89%)
Color range : Limited
Color primaries : BT.709
Transfer characteristics : BT.709
Matrix coefficients : BT.709
Audio
ID : 2
Format : AAC
Format/Info : Advanced Audio Codec
Format profile : LC
Codec ID : mp4a-40-2
Duration : 1 h 53 min
Bit rate mode : Constant
Bit rate : 126 kb/s
Channel(s) : 2 channels
Channel positions : Front: L R
Sampling rate : 44.1 kHz
Frame rate : 43.066 FPS (1024 SPF)
Compression mode : Lossy
Stream size : 102 MiB (10%)
Default : Yes




Sharing Widget


No Comments For This Torrent . Be The First to Comment

You must Login to Comment . Click Here to Login

Menu 1

Some content in menu 1.

Jigarbaaz (Vismaya) 2018 Hindi Dubbed Movie DVDRip x264 900MB (Size: 1.2 GB)
  Jigarbaaz (Vismaya) 2018 Hindi Dubbed Movie DVDRip x264 900MB 1.2 GB
tracker name
udp://tracker.leechers-paradise.org:6969/announce
udp://zer0day.ch:1337/announce
udp://open.demonii.com:1337/announce
udp://tracker.coppersurfer.tk:6969/announce
udp://exodus.desync.com:6969/announce
µTorrent compatible trackers list

Relative Torrents

Torrent Name Size Age SEED LEECH
19 06 2018 Вести Спец выпук после матча Россия-
Posted by    iDope   in   Video
1.1 GB 1 minute 453 921
Truth or Dare 2018 720p x264 WEB DL Eng XBET mp4
Posted by    iDope   in   Video
2.4 GB 1 minute 100 558
House Hunters International S81E11 HDTV 264-dotTV[rarbg]
Posted by    iDope   in   Video
149.0 MB 1 minute 170 608
Sokrovicha Troi(2 sserii) 2007 XviD DVDRp
Posted by    iDope   in   Movies
2.9 GB 1 minute 603 746
潦倒岁月 The Last Movie Star 2017 BD1080p X264 AAC CHS ENG-99Mp4 mp4
Posted by    iDope   in   Video
2.4 GB 1 minute 949 341