Reality-T
血观音 The Bold the Corrupt and the Beautiful 2017 BD720P X264 AAC Mandari...

Hate Story IV (2018) Hindi NEW Pre-DvDRi Torrent Free Download

Seeders : 252   &   Leechers : 152      13-03-2018 (1 month)
Hate Story IV (2018) Hindi NEW Pre-DvDRi Torrent Download
Added: ago by ictv ***** in Movies   869.8 MB   Hits : 21
Info Hash: D998AD62CCE6325BEF08C139F5DFB5BDCF9477C7 Download
Hate Story IV (2018) Hindi NEW Pre-DvDRi Torrent Download

Anonymous and Direct Download movies , software , shows...

Fast Safe Anonymous
movies, software, shows...

Torrent Description



Hate Story 4 (2018) Hindi NEW Pre-DvDRip x264 Mp3 900MB - MovCr

http://www.imdb.com/title/tt5325684/


General
Complete name : www.movcr.com - Hate Story 4 (2018) Hindi NEW Pre-DvDRip x264 Mp3 900MB - MovCr.mkv
Format : Matroska
Format version : Version 4 / Version 2
File size : 870 MiB
Duration : 2 h 3 min
Overall bit rate mode : Variable
Overall bit rate : 982 kb/s
Movie name : www.movcr.com
Encoded date : UTC 2018-03-14 08:00:46
Writing application : mkvmerge v20.0.0 ('I Am The Sun') 64-bit
Writing library : libebml v1.3.5 + libmatroska v1.4.8

Video
ID : 1
Format : AVC
Format/Info : Advanced Video Codec
Format profile : [email protected]
Format settings : CABAC / 4 Ref Frames
Format settings, CABAC : Yes
Format settings, RefFrames : 4 frames
Codec ID : V_MPEG4/ISO/AVC
Duration : 2 h 3 min
Bit rate : 900 kb/s
Width : 720 pixels
Height : 392 pixels
Display aspect ratio : 1.85:1
Frame rate mode : Constant
Frame rate : 25.000 FPS
Color space : YUV
Chroma subsampling : 4:2:0
Bit depth : 8 bits
Scan type : Progressive
Bits/(Pixel*Frame) : 0.128
Stream size : 809 MiB (93%)
Title : www.movcr.com
Writing library : x264 core 142 r2479 dd79a61
Encoding settings : cabac=1 / ref=4 / deblock=0:0:0 / analyse=0x3:0 / me=dia / subme=0 / psy=1 / psy_rd=1.00:0.00 / mixed_ref=0 / me_range=16 / chroma_me=1 / trellis=0 / 8x8dct=1 / cqm=0 / deadzone=21,11 / fast_pskip=1 / chroma_qp_offset=0 / threads=24 / lookahead_threads=3 / sliced_threads=0 / nr=0 / decimate=1 / interlaced=0 / bluray_compat=0 / constrained_intra=0 / bframes=4 / b_pyramid=2 / b_adapt=1 / b_bias=0 / direct=1 / weightb=1 / open_gop=0 / weightp=0 / keyint=250 / keyint_min=25 / scenecut=0 / intra_refresh=0 / rc_lookahead=0 / rc=abr / mbtree=0 / bitrate=900 / ratetol=1.0 / qcomp=0.60 / qpmin=0 / qpmax=69 / qpstep=4 / vbv_maxrate=50000 / vbv_bufsize=62500 / nal_hrd=none / filler=0 / ip_ratio=1.40 / pb_ratio=1.30 / aq=0
Default : Yes
Forced : No
Color range : Limited
Color primaries : BT.601 PAL
Transfer characteristics : BT.709
Matrix coefficients : BT.601

Audio
ID : 2
Format : MPEG Audio
Format version : Version 1
Format profile : Layer 3
Format settings : Joint stereo / MS Stereo
Codec ID : A_MPEG/L3
Codec ID/Hint : MP3
Duration : 2 h 3 min
Bit rate mode : Variable
Bit rate : 66.6 kb/s
Channel(s) : 2 channels
Sampling rate : 48.0 kHz
Frame rate : 41.666 FPS (1152 SPF)
Compression mode : Lossy
Stream size : 59.0 MiB (7%)
Title : www.movcr.com
Language : Hindi
Default : Yes
Forced : No











Sharing Widget


No Comments For This Torrent . Be The First to Comment

You must Login to Comment . Click Here to Login

Menu 1

Some content in menu 1.

Hate Story IV (2018) Hindi NEW Pre-DvDRip x264 Mp3 900MB - MovCr (Size: 869.8 MB)
  Hate Story IV (2018) Hindi NEW Pre-DvDRip x264 Mp3 900MB - MovCr 869.8 MB
tracker name
udp://tracker.leechers-paradise.org:6969/announce
udp://zer0day.ch:1337/announce
udp://open.demonii.com:1337/announce
udp://tracker.coppersurfer.tk:6969/announce
udp://exodus.desync.com:6969/announce
µTorrent compatible trackers list

Relative Torrents

Torrent Name Size Age SEED LEECH
Overkill - Feel The Fire (German)
Posted by    iDope   in   Music
866.2 MB 2 minutes 568 379
2014-10-26 Kunlun Fight 12 CN 1080p WebD-FTR mkv
Posted by    iDope   in   Video
5.0 GB 2 minutes 550 548
Stone Temple Pilots - Plush (12 Inch)
Posted by    iDope   in   Music
439.0 MB 2 minutes 759 446
pppd-622
Posted by    iDope   in   Video
1.7 GB 2 minutes 369 445
Supernatural S13E19 720p HDTV x264-AVS mv
Posted by    iDope   in   TV
743.5 MB 8 minutes 214 925