Zufällige Episode | Mythica: A Quest For Heroes | South Korea

Escape Plan 2 Hades (2018) 720p HDRip x2 Torrent Free Download

Seeders : 476   &   Leechers : 968      15-06-2018 (5 days)
Escape Plan 2 Hades (2018) 720p HDRip x2 Torrent Download
Added: ago by shmasti ***** in Movies   843.7 MB   Hits : 33
Info Hash: 105F95F6BCC44B7C3721F36875B5BD90AEB9E4DA Download
Escape Plan 2 Hades (2018) 720p HDRip x2 Torrent Download

Anonymous and Direct Download movies , software , shows...

Fast Safe Anonymous
movies, software, shows...

Torrent Description





General
Complete name : Escape Plan 2 Hades (2018) 720p HDRip x264 AAC ESub by Full4movies.mkv
Format : Matroska
Format version : Version 4 / Version 2
File size : 844 MiB
Duration : 1 h 33 min
Overall bit rate : 1 260 kb/s
Encoded date : UTC 2018-06-15 05:06:12
Writing application : mkvmerge v8.1.0 ('Psychedelic Postcard') 32bit
Writing library : libebml v1.3.1 + libmatroska v1.4.2

Video
ID : 1
Format : AVC
Format/Info : Advanced Video Codec
Format profile : [email protected]
Format settings, CABAC : Yes
Format settings, RefFrames : 5 frames
Codec ID : V_MPEG4/ISO/AVC
Duration : 1 h 33 min
Bit rate : 1 152 kb/s
Width : 1 280 pixels
Height : 536 pixels
Display aspect ratio : 2.40:1
Frame rate mode : Constant
Frame rate : 23.976 (24000/1001) FPS
Color space : YUV
Chroma subsampling : 4:2:0
Bit depth : 8 bits
Scan type : Progressive
Bits/(Pixel*Frame) : 0.070
Stream size : 756 MiB (90%)
Writing library : x264 core 148 r2643 5c65704
Language : English
Default : Yes
Forced : No

Audio
ID : 2
Format : AAC
Format/Info : Advanced Audio Codec
Format profile : LC
Codec ID : A_AAC
Duration : 1 h 33 min
Bit rate : 129 kb/s
Channel(s) : 2 channels
Channel positions : Front: L R
Sampling rate : 48.0 kHz
Frame rate : 46.875 FPS (1024 SPF)
Compression mode : Lossy
Delay relative to video : 9 ms
Stream size : 86.5 MiB (10%)
Language : English
Default : Yes
Forced : No

Screen Shoots




Sharing Widget


No Comments For This Torrent . Be The First to Comment

You must Login to Comment . Click Here to Login

Menu 1

Some content in menu 1.

Escape Plan 2 Hades (2018) 720p HDRip x264 AAC ESub by Full4movies (Size: 843.7 MB)
  Escape Plan 2 Hades (2018) 720p HDRip x264 AAC ESub by Full4movies 843.7 MB
tracker name
udp://tracker.leechers-paradise.org:6969/announce
udp://zer0day.ch:1337/announce
udp://open.demonii.com:1337/announce
udp://tracker.coppersurfer.tk:6969/announce
udp://exodus.desync.com:6969/announce
µTorrent compatible trackers list

Relative Torrents

Torrent Name Size Age SEED LEECH
Landing Up 2018 720p WEB-DL AAC 1 H264-CRG[SN]
Posted by    iDope   in   Video
2.9 GB 54 seconds 251 692
Dragon Ball Super S04E16 1080p BluRay x24 HUN JAP-PTHD
Posted by    iDope   in   TV
442.1 MB 54 seconds 221 722
Insurgency v2 4 0 9 exe
Posted by    iDope   in   Apps
1.6 MB 54 seconds 357 809
[thz la]BLACKED_100764-JANE_2160PTUSHY_10766-HALEY_2160P
Posted by    iDope   in   Video
7.7 GB 54 seconds 130 256
Cesare Deve Morire (V O S E) 2012 DVDRipXvid Ac3 TuCenTral avi
Posted by    iDope   in   Movies
699.4 MB 54 seconds 795 173