Britannia HDTV | 629 The Pirates of Somalia (2017) | Littérature française

Black Panther 2018 x264 Esub 720p BluRay Torrent Free Download

Seeders : 885   &   Leechers : 666      18-05-2018 (1 week)
Black Panther 2018 x264 Esub 720p BluRay Torrent Download
Added: ago by PENDUDESI ***** in Movies   937.0 MB   Hits : 14
Info Hash: 7E3CAB1198E22D4A502EA4E7BFC6F312FD1EC9FA Download
Black Panther 2018 x264 Esub 720p BluRay Torrent Download

Anonymous and Direct Download movies , software , shows...

Fast Safe Anonymous
movies, software, shows...
Black Panther
Action /Adventure /Sci-Fi  .   134 min   7.7/10
Director : Ryan Coogler  
Tags: Black  Panther  2018  x264  Esub  720p  

Released:
16 Feb 2018
After the events of Captain America: Civil War, King T'Challa returns home to the reclusive, technologically advanced African nation of Wakanda to serve as his country's new leader. However, T'Challa soon finds that he is challenged for the throne from factions wit.... See More hin his own country. When two foes conspire to destroy Wakanda, the hero known as Black Panther must team up with C.I.A. agent Everett K. Ross and members of the Dora Milaje, Wakanadan special forces, to prevent Wakanda from being dragged into a world war.

Torrent Description




Format : Matroska
Format version : Version 4 / Version 2
File size : 937 MiB
Duration : 2 h 14 min
Overall bit rate : 974 kb/s
Movie name : Black Panther 2018 GOPISAHI

Video
Format : AVC
Codec ID : V_MPEG4/ISO/AVC
Duration : 2 h 14 min
Bit rate : 800 kb/s
Width : 1 280 pixels
Height : 536 pixels
Display aspect ratio : 2.40:1
Frame rate mode : Constant
Frame rate : 23.976 (24000/1001) FPS
Color space : YUV
Chroma subsampling : 4:2:0
Bit depth : 8 bits
Scan type : Progressive
Bits/(Pixel*Frame) : 0.049
Stream size : 770 MiB (82%)
Title : GOPISAHI
Writing library : x264 core 155 r2893 b00bcaf


Audio #1
Format : AAC
Duration : 2 h 14 min
Bit rate : 85.3 kb/s
Channel(s) : 6 channels
Channel positions : Front: L C R, Side: L R, LFE
Sampling rate : 44.1 kHz
Frame rate : 43.066 FPS (1024 SPF)
Compression mode : Lossy
Stream size : 82.1 MiB (9%)
Title : GOPISAHI
Language : English

Audio #2
Format : AAC
Duration : 2 h 14 min
Bit rate : 85.6 kb/s
Channel(s) : 6 channels
Channel positions : Front: L C R, Side: L R, LFE
Sampling rate : 44.1 kHz
Frame rate : 43.066 FPS (1024 SPF)
Compression mode : Lossy
Stream size : 82.4 MiB (9%)
Title : GOPISAHI
Language : Hindi

Text
Language : English





Sharing Widget


No Comments For This Torrent . Be The First to Comment

You must Login to Comment . Click Here to Login

Menu 1

Some content in menu 1.

Black Panther 2018 x264 Esub 720p BluRay 5 1 Dual Audio English Hindi (Size: 937.0 MB)
  Black Panther 2018 x264 Esub 720p BluRay 5 1 Dual Audio English Hindi 937.0 MB
tracker name
udp://tracker.leechers-paradise.org:6969/announce
udp://zer0day.ch:1337/announce
udp://open.demonii.com:1337/announce
udp://tracker.coppersurfer.tk:6969/announce
udp://exodus.desync.com:6969/announce
µTorrent compatible trackers list

Relative Torrents

Torrent Name Size Age SEED LEECH
Gaza Slim Dubplate Vs Obie1 quot_D quot_astermind Dub Sessi_H264_AAC_360p mp4
Posted by    iDope   in   Video
7.2 MB 4 minutes 349 260
(C87) [Karaage of the Year (Karaage Mucho)] TANETUKE SR (Free!)
Posted by    iDope   in   Anime
10.0 MB 4 minutes 719 611
Dragon Ball Super S03E17 1080p BluRay x24 HUN JAP-PTHD
Posted by    iDope   in   TV
442.9 MB 4 minutes 286 995
Jimmy Kimmel 2018 05 24 Samantha Bee WEBx264-TBS[eztv] mkv
Posted by    iDope   in   Video
323.7 MB 4 minutes 687 240
[168x me]個人撮影S級細身巨乳パパン美女白肌おっぱい揺ら
Posted by    iDope   in   Video
1.7 GB 4 minutes 988 957