AllHerLuv 18 02 20 Jill Kassidy And Krissy Lynn Laura Krissy XXX 1080p MP4-WEIRD..
Re: Report Us And Win +1 Reputatio...

Baaghi 2 (2018) 1080p WEB-HD x264 AC3 DD Torrent Free Download

Seeders : 722   &   Leechers : 234      18-04-2018 (3 days)
Baaghi 2 (2018) 1080p WEB-HD x264 AC3 DD Torrent Download
Added: ago by TheFighter ***** in Movies   2.9 GB   Hits : 18
Info Hash: E9DD3FFB6E51691B7A0FF4A11984B9E0B06C2641 Download
Baaghi 2 (2018) 1080p WEB-HD x264 AC3 DD Torrent Download

Anonymous and Direct Download movies , software , shows...

Fast Safe Anonymous
movies, software, shows...
Baaghi
Action /Romance  .   133 min   5.2/10
Director : Sabir Khan  
Writer: Sanjeev Datta  
Tags: Baaghi  2  (2018)  1080p  WEB-HD  x264  

Released:
29 Apr 2016
Shortly after arriving at a martial arts academy, a troubled young man falls for the girl being wooed by his rival.

Torrent Description





Baaghi 2 (2018) 1080p WEB-HD x264 AC3 DD5.1 ~ Ranvijay

Buy RDP Online


Sample

Format                                   : Matroska
Format version                           : Version 2
File size                                : 2.89 GiB
Duration                                 : 2 h 23 min
Overall bit rate                         : 2 888 kb/s

Video
Duration                                 : 2 h 23 min
Bit rate                                 : 2 700 kb/s
Width                                    : 1 920 pixels
Height                                   : 808 pixels
Stream size                              : 2.61 GiB (90%)
Default                                  : Yes
Forced                                   : No

Audio
ID                                       : 2
Format                                   : AC-3
Format/Info                              : Audio Coding 3
Codec ID                                 : A_AC3
Duration                                 : 2 h 23 min
Bit rate mode                            : Constant
Bit rate                                 : 224 kb/s
Channel(s)                               : 6 channels
Channel positions                        : Front: L C R, Side: L R, LFE
Stream size                              : 229 MiB (8%)
Default                                  : Yes
Forced                                   : No















Sharing Widget


No Comments For This Torrent . Be The First to Comment

You must Login to Comment . Click Here to Login

Menu 1

Some content in menu 1.

Baaghi 2 (2018) 1080p WEB-HD x264 AC3 DD5 1 ~ Ranvijay (Size: 2.9 GB)
  Baaghi 2 (2018) 1080p WEB-HD x264 AC3 DD5 1 ~ Ranvijay 2.9 GB
tracker name
udp://tracker.leechers-paradise.org:6969/announce
udp://zer0day.ch:1337/announce
udp://open.demonii.com:1337/announce
udp://tracker.coppersurfer.tk:6969/announce
udp://exodus.desync.com:6969/announce
µTorrent compatible trackers list

Relative Torrents

Torrent Name Size Age SEED LEECH
Colors 1988 UNRATED 720p BluRay H264 AACRARBG
Posted by    Sergey321   in   Movies
1.5 GB 34 seconds 597 396
Colossus The Forbin Project 1970 720p BlRay H264 AAC-RARBG
Posted by    Sergey321   in   Movies
1.2 GB 34 seconds 614 566
Faster Pussycat Kill Kill 1965 720p BluRy H264 AAC-RARBG
Posted by    Sergey321   in   Movies
1.0 GB 34 seconds 984 323
I Had a Bloody Good Time at House Harker2016 720p BluRay H264 AAC-RARBG
Posted by    Sergey321   in   Movies
987.0 MB 34 seconds 698 416
Saturday Night Fever 1977 DC 720p BluRayH264 AAC-RARBG
Posted by    Sergey321   in   Movies
1.5 GB 34 seconds 792 282