Family Guy Season 16 Eps14
Remix

Ash vs Evil Dead 3x03 Morto o quasi (201 Torrent Free Download

Seeders : 380   &   Leechers : 109      13-03-2018 (1 month)
Ash vs Evil Dead 3x03 Morto o quasi (201 Torrent Download
Added: ago by robbyrs ***** in TV   257.3 MB   Hits : 23
Info Hash: 2C2C0A470A1AC25181BF4D22F8D2AC52958CE7DB Download
Ash vs Evil Dead 3x03 Morto o quasi (201 Torrent Download

Anonymous and Direct Download movies , software , shows...

Fast Safe Anonymous
movies, software, shows...

Torrent Description



Ash vs Evil Dead 3x03 Morto o quasi (2018).Mp4.Italian.english.sub.ita.eng.MIRCrew


NO FOUND ONLY ORIGINAL RELEASE



My release is always in double track audio italian and Original audio
for select it use VLC or dvd player home
not use wmp

Ash vs Evil Dead 3x03








Genre Horror, Supernatural
Based on Characters: by Sam Raimi
Developed by

Sam Raimi
Ivan Raimi
Tom Spezialy



Bruce Campbell
Ray Santiago
Dana DeLorenzo
Jill Marie Jones
Lucy Lawless
Michelle Hurd
Ted Raimi
Pepi Sonuga
Arielle Carver-O'Neill
Lindsay Farris



Sono passati ormai 30 anni da quando Ash Williams ha dovuto combattere contro le forze del male. Oggi fa ancora il commesso nello stesso centro commerciale di un tempo, vive in una roulotte, e trascorre le serate in cerca di facili avventure.



Ash vs Evil Dead is an American comedy horror television series developed by Sam Raimi, Ivan Raimi, and Tom Spezialy for the Starz network filmed in New Zealand. It is set in Raimi's Evil Dead universe, with Bruce Campbell reprising his role as Ash Williams, and acts as a sequel to the original trilogy.............










[spoiler]

General
General
Complete name : C:\Users\robby\Desktop\Ash vs Evil Dead 3x02 Cabina tre (2018).Mp4.Italian.english.sub.ita.eng.MIRCrew\Ash vs Evil Dead 3x02 Cabina tre (2018).Mp4.Italian.english.sub.ita.eng.MIRCrew.mp4
Format : MPEG-4
Format profile : Base Media
Codec ID : isom
File size : 282 MiB
Duration : 29mn 17s
Overall bit rate : 1 347 Kbps
Movie name : MIRCrew
Encoded date : UTC 2018-03-08 23:13:18
Tagged date : UTC 2018-03-08 23:13:18
Writing application : Lavf54.63.100
Copyright : robbyrs-iCN

Video
ID : 1
Format : AVC
Format/Info : Advanced Video Codec
Format profile : [email protected]
Format settings, CABAC : Yes
Format settings, ReFrames : 2 frames
Codec ID : avc1
Codec ID/Info : Advanced Video Coding
Duration : 29mn 17s
Bit rate : 1 100 Kbps
Width : 656 pixels
Height : 368 pixels
Display aspect ratio : 16:9
Frame rate mode : Constant
Frame rate : 25.000 fps
Color space : YUV
Chroma subsampling : 4:2:0
Bit depth : 8 bits
Scan type : Progressive
Bits/(Pixel*Frame) : 0.182
Stream size : 227 MiB (80%)
Writing library : x264 core 130 r2273
Encoding settings : cabac=1 / ref=2 / deblock=1:0:0 / analyse=0x1:0x131 / me=hex / subme=7 / psy=1 / psy_rd=1.00:0.00 / mixed_ref=0 / me_range=16 / chroma_me=1 / trellis=1 / 8x8dct=0 / cqm=0 / deadzone=21,11 / fast_pskip=1 / chroma_qp_offset=-2 / threads=3 / lookahead_threads=1 / sliced_threads=0 / nr=0 / decimate=1 / interlaced=0 / bluray_compat=0 / constrained_intra=0 / bframes=3 / b_pyramid=0 / b_adapt=1 / b_bias=0 / direct=3 / weightb=1 / open_gop=0 / weightp=2 / keyint=250 / keyint_min=25 / scenecut=40 / intra_refresh=0 / rc_lookahead=40 / rc=abr / mbtree=1 / bitrate=1100 / ratetol=1.0 / qcomp=0.60 / qpmin=10 / qpmax=69 / qpstep=4 / vbv_maxrate=24000 / vbv_bufsize=24000 / nal_hrd=none / ip_ratio=1.40 / aq=1:1.00
Encoded date : UTC 2018-03-08 23:13:18
Tagged date : UTC 2018-03-08 23:13:18

Audio #1
ID : 2
Format : AAC
Format/Info : Advanced Audio Codec
Format profile : LC
Codec ID : 40
Duration : 29mn 17s
Duration_LastFrame : -17ms
Bit rate mode : Constant
Bit rate : 128 Kbps
Channel(s) : 2 channels
Channel positions : Front: L R
Sampling rate : 44.1 KHz
Compression mode : Lossy
Delay relative to video : -512ms
Stream size : 26.8 MiB (10%)
Encoded date : UTC 2018-03-08 23:13:18
Tagged date : UTC 2018-03-08 23:13:18

Audio #2
ID : 3
Format : AAC
Format/Info : Advanced Audio Codec
Format profile : LC
Codec ID : 40
Duration : 29mn 17s
Duration_LastFrame : -17ms
Bit rate mode : Constant
Bit rate : 128 Kbps
Channel(s) : 2 channels
Channel positions : Front: L R
Sampling rate : 44.1 KHz
Compression mode : Lossy
Delay relative to video : -512ms
Stream size : 26.8 MiB (10%)
Encoded date : UTC 2018-03-08 23:13:18
Tagged date : UTC 2018-03-08 23:13:18


[/spoiler]






Sharing Widget


No Comments For This Torrent . Be The First to Comment

You must Login to Comment . Click Here to Login

Menu 1

Some content in menu 1.

Ash vs Evil Dead 3x03 Morto o quasi (2018) Mp4 Italian english sub ita (Size: 257.3 MB)
  Ash vs Evil Dead 3x03 Morto o quasi (2018) Mp4 Italian english sub ita 257.3 MB
tracker name
udp://tracker.leechers-paradise.org:6969/announce
udp://zer0day.ch:1337/announce
udp://open.demonii.com:1337/announce
udp://tracker.coppersurfer.tk:6969/announce
udp://exodus.desync.com:6969/announce
µTorrent compatible trackers list

Relative Torrents

Torrent Name Size Age SEED LEECH
Dude 2018 WEBRip x264-STRiFE[EtMovies]
Posted by    EtHD   in   Movies
596.9 MB 1 minute 735 209
Neighbors 2 Sorority Rising 2016 1080p BuRay x264 Eng-Hindi AC3 DD 5 1 [Team SS
Posted by    DarkRelease   in   Movies
1.6 GB 1 minute 59 886
Kodachrome 2018 720p NF WEB-DL DD5 1 x26-NTG[EtHD]
Posted by    EtHD   in   Movies
1.6 GB 1 minute 459 515
Kodachrome 2018 1080p NF WEB-DL DD5 1 x24-NTG[EtHD]
Posted by    EtHD   in   Movies
2.7 GB 1 minute 810 856
Kodachrome 2018 HDRip XviD AC3-EVO[EtMoves]
Posted by    EtHD   in   Movies
1.4 GB 1 minute 879 912