Dziki 2. Pojedynek | Download " Deadpool 2 (2018)" in HD Quality | Yurikuma Arashi

Aiyaary 2018 1080p WEBRip ZEE5 Torrent Free Download

Seeders : 172   &   Leechers : 594      18-05-2018 (1 week)
Aiyaary 2018 1080p WEBRip ZEE5 Torrent Download
Added: ago by abuhamza420 ***** in Movies   1.9 GB   Hits : 13
Info Hash: 333672FB5CF97AE26EF3210B974C26A7D8FEF12F Download
Aiyaary 2018 1080p WEBRip ZEE5 Torrent Download

Anonymous and Direct Download movies , software , shows...

Fast Safe Anonymous
movies, software, shows...
Aiyaary
Action /Crime /Drama  .   157 min   5.8/10
Director : Neeraj Pandey  
Writer: Neeraj Pandey  
Tags: Aiyaary  2018  1080p  WEBRip  ZEE5  

Released:
16 Feb 2018
Two officers with patriotic hearts suddenly have a fallout. The mentor, Colonel Abhay Singh has complete faith in the country's system while protégé Major Jai Bakshi thinks differently due to a recent stint in surveillance.

Torrent Description





Aiyaary 2018 1080p WEBRip ZEE5 ZEE5

More Info.. Go Zeee5.Info

Join Us Now

Sample Link Here







Video
ID : 1
Format : AVC
Format/Info : Advanced Video Codec
Format profile : [email protected]
Format settings : CABAC / 5 Ref Frames
Format settings, CABAC : Yes
Format settings, RefFrames : 5 frames
Codec ID : V_MPEG4/ISO/AVC
Duration : 2 h 38 min
Bit rate : 1 572 kb/s
Width : 1 920 pixels
Height : 804 pixels
Display aspect ratio : 2.40:1
Frame rate mode : Constant
Frame rate : 23.976 (24000/1001) FPS
Color space : YUV
Chroma subsampling : 4:2:0
Bit depth : 8 bits
Scan type : Progressive
Bits/(Pixel*Frame) : 0.042
Stream size : 1.73 GiB (92%)
Writing library : x264 core 155 r2901 7d0ff22
Language : English
Default : Yes
Forced : No
Color range : Limited
Color primaries : Generic film
Transfer characteristics : BT.709
Matrix coefficients : BT.709

Audio
ID : 2
Format : AAC
Format/Info : Advanced Audio Codec
Format profile : HE-AAC / LC
Format settings : Explicit
Codec ID : A_AAC-2
Duration : 2 h 38 min
Bit rate : 126 kb/s
Channel(s) : 6 channels
Channel positions : Front: L C R, Side: L R, LFE
Sampling rate : 48.0 kHz / 24.0 kHz
Frame rate : 23.438 FPS (1024 SPF)
Compression mode : Lossy
Delay relative to video : 31 ms
Stream size : 142 MiB (7%)
Default : Yes
Forced : No

Text #1
ID : 3
Format : UTF-8
Codec ID : S_TEXT/UTF8
Codec ID/Info : UTF-8 Plain Text
Duration : 55 min 14 s
Bit rate : 1 b/s
Count of elements : 8
Stream size : 632 Bytes (0%)
Default : Yes
Forced : No
Text #2
ID : 4
Format : UTF-8
Codec ID : S_TEXT/UTF8
Codec ID/Info : UTF-8 Plain Text
Duration : 2 h 29 min
Bit rate : 46 b/s
Count of elements : 1657
Stream size : 51.3 KiB (0%)
Language : English
Default : No
Forced : No






Aiyaary 2018 1080p WEBRip ZEE5







Sharing Widget


No Comments For This Torrent . Be The First to Comment

You must Login to Comment . Click Here to Login

Menu 1

Some content in menu 1.

Aiyaary 2018 1080p WEBRip ZEE5 (Size: 1.9 GB)
  Aiyaary 2018 1080p WEBRip ZEE5 1.9 GB
tracker name
udp://tracker.leechers-paradise.org:6969/announce
udp://zer0day.ch:1337/announce
udp://open.demonii.com:1337/announce
udp://tracker.coppersurfer.tk:6969/announce
udp://exodus.desync.com:6969/announce
µTorrent compatible trackers list

Relative Torrents

Torrent Name Size Age SEED LEECH
Dragon Ball Super S03E17 1080p BluRay x24 HUN JAP-PTHD
Posted by    iDope   in   TV
442.9 MB 3 minutes 286 995
Jimmy Kimmel 2018 05 24 Samantha Bee WEBx264-TBS[eztv] mkv
Posted by    iDope   in   Video
323.7 MB 3 minutes 687 240
Football_Manager_2018_Crack_3BDTSW exe
Posted by    iDope   in   Apps
2.1 MB 9 minutes 505 520
Jimmy Kimmel 2018 05 22 Johnny KnoxvilleWEB x264-TBS[eztv] mkv
Posted by    iDope   in   Video
327.1 MB 9 minutes 772 708
VIPs 2010 BRRip 1080p AAC x264-kPAD
Posted by    Kalipad   in   Movies
2.5 GB 9 minutes 718 605